+ Reply to Thread
Results 1 to 2 of 2
  1. #1
    Administrators Duckload.us's Avatar
    Join Date
    Dec 2010
    Posts
    99,722
    Thanks
    9
    Thanked 101,122 Times in 48,427 Posts

    Question [ฝรั่ง]-อลิตา แบทเทิล แองเจิ้ล (2019) Alita: Battle Angel-HD DVD.AC-3.720p. [หนังซูม]-[Soundtrack ไม่มีบรรยาย]



    เสียงโรง Soundtrack (ภาษาอังกฤษเท่านั้น) + มีลายน้ำ


    เรื่องย่อ
    Alita: Battle Angel ภาพยนตร์ดัดแปลงจากการ์ตูนญี่ปุ่นเรื่อง เพชฌฆาตไซบอร์ก หรือในชื่อญี่ปุ่นว่า Gunnm ซึ่งเขียนโดย คิชิโระ ยูกิโตะ และได้รับการดัดแปลงเป็นแอนิเมชั่นจากเนื้อเรื่องในห นังสือเล่มแรกๆในชื่อ Battle Angel เรื่องราวเกิดขึ้นในอนาคตอันไกลโพ้น ซึ่งไซบอร์คและหุ่นยนตร์กลายเป็นเรื่องปกติ เมืองลอยฟ้าทิฟาเรส เก็บงำความลับอันดำมืด มันทิ้งขยะไร้ค่าลงสู่โล่งเบื้องล่าง และที่ลานทิ้งขยะนั้นเอง แพทย์ไซบอร์ค อิโดะ พบเข้ากับชิ้นส่วนหัวและลำตัวของเด็กสาวไซบอร์คที่ยั งมีชีวิตอยู่ได้ มีเพียงสมองของเธอเท่านั้นที่เป็นมนุษย์ ส่วนอื่นในร่างกายของเธอล้วนเป็นเครื่องจักร เธอสูญเสียความทรงจำทั้งหมดในอดีต และได้ชื่อใหม่จากอิโดะ เอลิตา เขาสร้างเธอขึ้นมาใหม่อีกครั้งและกลายเป็นเสมือนบิดา ของเธอในฐานะผู้มอบร่างกายใหม่ให้ อย่างไรก็ตาม ข่าวการฆาตกรรมต่อเนื่องได้เริ่มแพร่กระจายไปในเมือง อลิตาเริ่มสงสัยอิโดะในฐานะผู้ลงมือเพื่อหาชิ้นส่วนร ่างกายให้เธอ แต่เมื่อเธอติดตามเขาออกไปในคืนหนึ่ง จึงได้พบว่าที่แท้เขากำลังตามจับตัวฆาตกร ภายใต้ฐานะ ฮันเตอร์ วอร์ริเออร์ ที่เขาได้รับมอบหมายมา ระหว่างการเข้าปะทะกับฆาตกรตัวจริงนั้น สัญชาติญาณของเด็กสาวก็ทำงาน เธอล้มฆาตกรได้ด้วยศิลปะการต่อสู้โบราณ ผลสุดท้าย เธอจึงตัดสินใจเข้าช่วยเหลืออิโดะในการพิทักษ์ความยุ ติธรรม และได้กลายมาเป็นฮันเตอร์วอร์ริเออร์เช่นกัน เธอปลดล็อคความสามารถและพลังที่แท้จริงของตนเอง เข้าต่อสู้กับศัตรูที่แสนอันตราย และเพื่อนผู้ยึดมั่นในอุดมการณ์

    Quote:
    General
    Format : MPEG-4
    Format profile : Base Media / Version 2
    Codec ID : mp42 (mp42/isom/avc1)
    File size : 2.42 GiB
    Duration : 1 h 58 min
    Overall bit rate mode : Variable
    Overall bit rate : 2 925 kb/s
    Encoded date : UTC 2019-02-08 11:16:13
    Tagged date : UTC 2019-02-08 11:16:13
    Writing application : TMPGEnc Video Mastering Works 6 Version. 6.2.2.29

    Video
    ID : 2
    Format : AVC
    Format/Info : Advanced Video Codec
    Format profile : [email protected]
    Format settings : CABAC / 6 Ref Frames
    Format settings, CABAC : Yes
    Format settings, RefFrames : 6 frames
    Codec ID : avc1
    Codec ID/Info : Advanced Video Coding
    Duration : 1 h 58 min
    Bit rate mode : Variable
    Bit rate : 2 720 kb/s
    Maximum bit rate : 18.0 Mb/s
    Width : 1 280 pixels
    Height : 536 pixels
    Display aspect ratio : 2.40:1
    Frame rate mode : Constant
    Frame rate : 29.970 (30000/1001) FPS
    Standard : Component
    Color space : YUV
    Chroma subsampling : 4:2:0
    Bit depth : 8 bits
    Scan type : Progressive
    Bits/(Pixel*Frame) : 0.132
    Stream size : 2.24 GiB (92%)
    Writing library : x264 core 148
    Encoding settings : cabac=1 / ref=6 / deblock=1:0:0 / analyse=0x3:0x113 / me=hex / subme=7 / psy=1 / psy_rd=1.00:0.00 / mixed_ref=1 / me_range=16 / chroma_me=1 / trellis=1 / 8x8dct=1 / cqm=1 / deadzone=21,11 / fast_pskip=1 / chroma_qp_offset=-2 / threads=12 / lookahead_threads=2 / sliced_threads=0 / slices=1 / nr=0 / decimate=1 / interlaced=0 / minigop=0 / stitchable=1 / constrained_intra=0 / bframes=3 / b_pyramid=0 / b_adapt=1 / b_bias=0 / direct=1 / weightb=1 / open_gop=0 / weightp=2 / keyint=250 / keyint_min=25 / scenecut=40 / intra_refresh=0 / rc_lookahead=40 / rc=abr / mbtree=1 / bitrate=2720 / ratetol=1.0 / qcomp=0.60 / qpmin=3 / qpmax=69 / qpstep=4 / vbv_maxrate=18000 / vbv_bufsize=18000 / nal_hrd=vbr / filler=0 / ip_ratio=1.40 / aq=1:1.00
    Encoded date : UTC 2019-02-08 11:16:13
    Tagged date : UTC 2019-02-08 11:16:13
    Color range : Limited
    Color primaries : BT.709
    Transfer characteristics : BT.709
    Matrix coefficients : BT.709
    Codec configuration box : avcC

    Audio
    ID : 1
    Format : AC-3
    Format/Info : Audio Coding 3
    Commercial name : Dolby Digital
    Codec ID : ac-3
    Duration : 1 h 58 min
    Bit rate mode : Constant
    Bit rate : 224 kb/s
    Channel(s) : 2 channels
    Channel layout : L R
    Sampling rate : 48.0 kHz
    Frame rate : 31.250 FPS (1536 SPF)
    Bit depth : 16 bits
    Compression mode : Lossy
    Stream size : 190 MiB (8%)
    Service kind : Complete Main
    Default : Yes
    Alternate group : 1





    Download: cornfile
    http://cornfile.com/mdbrg9aasiq8
    Download: mekafile
    http://www.mekafile.com/dl.php?f=vm4fb4bQdVHs

  2. The Following User Says Thank You to Duckload.us For This Useful Post:

    Wesker_TOT (02-12-2019)

  3. #2
    Senior Member
    Join Date
    Dec 2013
    Posts
    1,342
    Thanks
    3,292
    Thanked 0 Times in 0 Posts
    อูยยยยยย....

    ขอบคุณครับ...

+ Reply to Thread

Thread Information

Users Browsing this Thread

There are currently 1 users browsing this thread. (0 members and 1 guests)

     

Posting Permissions

  • You may not post new threads
  • You may not post replies
  • You may not post attachments
  • You may not edit your posts