+ Reply to Thread
Results 1 to 1 of 1
  1. #1
    Administrators Duckload.us's Avatar
    Join Date
    Dec 2010
    Posts
    99,722
    Thanks
    9
    Thanked 101,123 Times in 48,428 Posts

    Question [ฝรั่ง]-Titanic (1997) ไททานิค-4K Blu-ray.DTS.2160p. [Master]-[พากย์ไทย บรรยายไทย]



    การพบซากเรือที่มหาสมุทรแอตแลนติคเหนือ ปี ค.ศ. 1985 บร๊อค โลเวตนักสำรวจชาวอเมริกัน ได้ดำลงไปสำรวจหาซากเรือเพื่อหา สมบัติอันล้ำค่า แต่กลับได้พบภาพวาดลายเส้น รูปหญิงสาวเปลือยกายที่สวม สร้อยคอและจี้เพชรเท่านั้น ผู้ที่เป็นแบบในภาพวาดก็คือ โรส และเธอได้เล่าเหตุการณ์ให้ทุกคนฟัง
    ย้อนในปี ค.ศ. 1912 แจ๊ค ดอว์สัน เด็กหนุ่มเต็ดเตร่ชาวอเมริกันได้โชคเป็นตั๋วโดยสารเร ือไททานิกชั้น 3 จากการเล่นโป๊กเกอร์ นั่นทำให้เขาได้พบ โรส เดวิท บูเคเตอร์ โรส เดวิท บูเกเตอร์ สาวงามผู้เป็นบุตรีจากครอบครัวชั้นสูงและคุณหนูผู้ดี มีตระกูล ได้เดินทางมากับเรือไททานิกพร้อม แม่ ซึ่งก็คือ รูธ เดวิท บูเกเตอร์ และคู่หมั้นหนุ่ม แคล หรือเซลดอน นาธาน ฮ๊อคลี่ย์ มหาเศรษฐีผู้เย่อหยิ่ง และเอาแต่ใจตัวเอง ทั้งคู่จะเข้าพิธีแต่งงาน หลังเดินทางถึงฟิลลาเดลเฟีย
    โรสมีความอึดอัดในการใช้ชีวิตแบบสังคมชั้นสูงจากการบ ังคับของแม่และฮ็อคลี่ย์ และไม่พอใจที่ถูกบีบบังคับ และทนรับชีวิตที่น่าเบื่อหน่ายและบีบคั้นไม่ไหว ด้วยอารมณ์ชั่ววูบ เธอวิ่งไปที่ด้านท้ายเรือและ พยายามที่จะฆ่าตัวตาย แต่แล้วโรสก็พบกับ แจ๊ค ชายหนุ่มยากไร้ ผู้มีชีวิตเป็นอิสระ ได้เห็นเหตุการณ์ และเขาได้ช่วยชีวิตเธอไว้ทันท่วงที นั่นทำให้ความสัมพันธ์ของทั้งคู่เกิดขึ้น
    ฮ็อกลี่ย์ได้ตอบแทนแจ๊ค ด้วยการชวนขึ้นไปร่วมดินเนอร์กับผู้โดยสารชั้นหนึ่ง แจ๊คโดนเยาะเย้นถากถางในระหว่างดินเนอร์ แต่เขาก็ตอบได้อย่างชาญฉลาดและเป็นตัวของเขาเอง ทำให้โรสประทับใจตัวแจ๊คมากขึ้น
    แจ๊คพาเธอไปรู้จักชีวิตอีกด้านที่เป็นอิสระของเขา สาวน้อยได้รับในสิ่งที่เธอขาดมาตลอด นั่นคือความเป็นอิสระในการได้ทำทุกอย่างที่ใจต้องการ
    โรสใช้ชีวิตที่สนุกสนานในส่วนของผู้โดยสารชั้นสาม ความสัมพันธ์ระหว่างเธอกับคู่หมั้นหนุ่มเลวร้ายลง ในขณะที่ความสัมพันธ์กับแจ๊คได้ลึกซึ้งขึ้นเรื่อย ๆ สร้างความริษยาให้กับ ฮ๊อคลี่ย์ จนตัดสินใจใส่ร้ายแจ๊ค และจับไปคุมขังที่ใต้ท้องเรือจนกระทั่งวาระสุดท้ายขอ งไททานิกมาถึง
    ในคืนนั้นไททานิกก็พบกับความหายนะเมื่อ พุ่งเข้าชนภูเขาน้ำแข็ง จนบริเวณใต้ท้องเรือเกิดความเสียหายจนไม่สามารถแก้ไข ได้ ความโกลาหลวุ่นวายได้เกิดขึ้น เพราะทุกชีวิตต่างดิ้นรนที่จะเอาตัวรอด ในที่สุดเรือไททานิกที่ยิ่งใหญ่
    และเคยถูกเชื่อว่าไม่มีวันจม ก็ดำดิ่งลงสู่ก้นทะเลลึกพร้อมผู้โดยสารอีกเกือบ 1500 ชีวิต ในขณะที่แจ๊คและโรสกำลังลอยอยู่กลางมหาสมุทรอันหนาวเ ย็น ท่ามกลางความมืด และความฝันที่กำลังสูญสิ้น
    โดยทั้งหมดผ่านการเล่าเรื่องจากโรสในวัยชรา ผู้โดยสารไททานิกที่รอดชีวิตคนสุดท้ายที่ยังมีชีวิตอ ยู่



    Video
    ID : 1
    Format : AVC
    Format/Info : Advanced Video Codec
    Format profile : [email protected]
    Format settings : CABAC / 4 Ref Frames
    Format settings, CABAC : Yes
    Format settings, ReFrames : 4 frames
    Codec ID : V_MPEG4/ISO/AVC
    Duration : 3 h 14 min
    Bit rate : 10.5 Mb/s
    Width : 1 920 pixels
    Height : 1 080 pixels
    Display aspect ratio : 16:9
    Frame rate mode : Constant
    Frame rate : 23.976 (24000/1001) FPS
    Color space : YUV
    Chroma subsampling : 4:2:0
    Bit depth : 8 bits
    Scan type : Progressive
    Bits/(Pixel*Frame) : 0.210
    Stream size : 14.2 GiB (71%)
    Writing library : x264 core 155 r2901 7d0ff22
    Encoding settings : cabac=1 / ref=3 / deblock=1:-1:-1 / analyse=0x3:0x113 / me=hex / subme=7 / psy=1 / psy_rd=1.00:0.15 / mixed_ref=1 / me_range=16 / chroma_me=1 / trellis=1 / 8x8dct=1 / cqm=0 / deadzone=21,11 / fast_pskip=1 / chroma_qp_offset=-3 / threads=6 / lookahead_threads=1 / sliced_threads=0 / nr=0 / decimate=1 / interlaced=0 / bluray_compat=0 / constrained_intra=0 / bframes=3 / b_pyramid=2 / b_adapt=1 / b_bias=0 / direct=1 / weightb=1 / open_gop=0 / weightp=2 / keyint=240 / keyint_min=23 / scenecut=40 / intra_refresh=0 / rc_lookahead=40 / rc=crf / mbtree=1 / crf=18.0 / qcomp=0.60 / qpmin=0 / qpmax=69 / qpstep=4 / vbv_maxrate=62500 / vbv_bufsize=78125 / crf_max=0.0 / nal_hrd=none / filler=0 / ip_ratio=1.40 / aq=1:1.00
    Default : Yes
    Forced : No

    Audio #1
    ID : 2
    Format : DTS
    Format/Info : Digital Theater Systems
    Format profile : MA / Core
    Codec ID : A_DTS
    Duration : 3 h 14 min
    Bit rate mode : Variable / Constant
    Bit rate : 3 840 kb/s / 1 509 kb/s
    Channel(s) : 6 channels
    Channel positions : Front: L C R, Side: L R, LFE
    Sampling rate : 48.0 kHz
    Frame rate : 93.750 FPS (512 SPF)
    Bit depth : 24 bits
    Compression mode : Lossless / Lossy
    Delay relative to video : 3 ms
    Stream size : 5.29 GiB (26%)
    Language : English
    Default : Yes
    Forced : No

    Audio #2
    ID : 3
    Format : AC-3
    Format/Info : Audio Coding 3
    Codec ID : A_AC3
    Duration : 3 h 14 min
    Bit rate mode : Constant
    Bit rate : 448 kb/s
    Channel(s) : 6 channels
    Channel positions : Front: L C R, Side: L R, LFE
    Sampling rate : 48.0 kHz
    Frame rate : 31.250 FPS (1536 SPF)
    Bit depth : 16 bits
    Compression mode : Lossy
    Delay relative to video : 24 ms
    Stream size : 624 MiB (3%)
    Language : Thai
    Service kind : Complete Main
    Default : No
    Forced : No

    Text #1
    ID : 4
    Format : PGS
    Muxing mode : zlib
    Codec ID : S_HDMV/PGS
    Codec ID/Info : Picture based subtitle format used on BDs/HD-DVDs
    Duration : 3 h 6 min
    Bit rate : 19.9 kb/s
    Count of elements : 4220
    Stream size : 26.6 MiB (0%)
    Language : Thai
    Default : No
    Forced : No

    Text #2
    ID : 5
    Format : PGS
    Muxing mode : zlib
    Codec ID : S_HDMV/PGS
    Codec ID/Info : Picture based subtitle format used on BDs/HD-DVDs
    Duration : 3 h 1 min
    Bit rate : 13.7 kb/s
    Count of elements : 4208
    Stream size : 17.8 MiB (0%)
    Language : English
    Default : No
    Forced : No



    http://cornfile.com/rrwppazrk65n
    http://www.mekafile.com/dl.php?f=4o8551bPWcYv

  2. The Following User Says Thank You to Duckload.us For This Useful Post:

    apichartdear (02-12-2019)

+ Reply to Thread

Thread Information

Users Browsing this Thread

There are currently 1 users browsing this thread. (0 members and 1 guests)

     

Posting Permissions

  • You may not post new threads
  • You may not post replies
  • You may not post attachments
  • You may not edit your posts