แอฟริกาตอนใต้กลายเป็นแหล่งพำนักของมิตรใหม่จากจักรว าลไกลโพ้น มันถูกตั้งเป็นเขตปกครองอิสระ และมนุษย์เจ้าของเดิมไม่สามารถลุกล้ำดินแดนดังกล่าว มันเป็นการต้อนรับอย่างอบอุ่นและเสียสละอย่างจริงใจ ทว่าเมื่อนานวันเข้ามนุษย์กลับพบว่าการมาเยื่อนครั้ง นี้ ผู้เดิมที่เข้าใจว่าเป็นมิตรนั้นกลับมีแผนทำลายล้างเ ผ่าพันธุ์มนุษย์ให้สูญสิ้นสายพันธุ์ไปจากพิภพ

20 กว่าปีที่แล้ว มนุษย์ต่างดาวหรือเอเลี่ยนมาเยือนโลกเป็นครั้งแรก พวกเขาไม่ได้บุกทำลายโลก หรือมาพร้อมกับเทคโนโลยีก้าวล้ำนำหน้า แต่แค่อพยพย้ายถิ่นจากดาวบ้านเกิด และเริ่มสร้างบ้านชั่วคราวขึ้นในเขตปกครองพิเศษที่ 9 ของแอฟริกาใต้ ในขณะที่ประเทศต่าง ๆ ทั่วโลกก็ต้องถกเครียดว่าจะทำอย่างไรกับเอเลี่ยนดี

ตอนนี้ ความอดทนต่อสถานการณ์เอเลี่ยนสิ้นสุดลงแล้ว การควบคุมเอเลี่ยนตกเป็นหน้าที่ของ พหุประชาชาติ หรือ เอ็มเอ็นยู องค์กรเอกชนซึ่งไม่แยแสต่อสวัสดิภาพใด ๆ ของเอเลี่ยน และรู้แค่ว่าจะทำกำไรได้มหาศาลถ้าประดิษฐ์อาวุธทรงอา นุภาพของเอเลี่ยนสำเร็จ ทว่าพวกเขาล้มเหลว เพราะอาวุธจะใช้การได้ก็ต้องอาศัยดีเอ็นเอของเอเลี่ย นเท่านั้น

ความตึงเครียดระหว่างเอเลี่ยนกับมนุษย์มาถึงจุดแตกหั ก เมื่อเอ็มเอ็นยูเริ่มขับไล่อมนุษย์ออกจากเขตปกครองพิ เศษที่ 9 โดยมีเจ้าหน้าที่ภาคสนามขององค์กรเป็นผู้รับผิดชอบเค ลื่อนย้ายไปยังค่ายกักกันแห่งใหม่ แต่แล้ว วิคัส แวน แดร์ มัว (ชาร์ลโต คอปลีย์) หนึ่งในเจ้าหน้าที่ภาคสนาม กลับติดเชื้อไวรัสจากพวกเอเลี่ยนซึ่งทำให้ดีเอ็นเอใน ตัวเขาค่อย ๆ เปลี่ยนแปลงไป นับแต่นั้น เขากลายเป็นคนที่ทั้งโลกตามล่า เพราะมีค่าไม่ต่างจากกุญแจที่จะไขไปสู่ความลับเกี่ยว กับเทคโนโลยีของเอเลี่ยน จะไปขอหลบอยู่กับเพื่อน เพื่อนก็ไล่ จะไปขอความช่วยเหลือจากใคร ใครๆ ก็รังเกียจ ไม่เหลือที่ไหนให้เขาซ่อนตัวได้อีกแล้ว นอกจากเขตปกครองพิเศษที่ 9

General
Format : Matroska
Format version : Version 4
File size : 53.4 GiB
Duration : 1 h 52 min
Overall bit rate mode : Variable
Overall bit rate : 68.1 Mb/s
Writing library : libebml v1.3.6 + libmatroska v1.4.9

Video
ID : 1
Format : HEVC
Format/Info : High Efficiency Video Coding
Commercial name : HDR10
Format profile : Main [email protected]@High
Codec ID : V_MPEGH/ISO/HEVC
Duration : 1 h 52 min
Bit rate : 63.3 Mb/s
Width : 3 840 pixels
Height : 2 160 pixels
Display aspect ratio : 16:9
Frame rate mode : Constant
Frame rate : 23.976 (24000/1001) FPS
Standard : PAL
Color space : YUV
Chroma subsampling : 4:2:0 (Type 2)
Bit depth : 10 bits
Bits/(Pixel*Frame) : 0.319
Stream size : 49.7 GiB (93%)
Language : English
Default : Yes
Forced : No
Color range : Limited
Color primaries : BT.2020
Transfer characteristics : PQ
Matrix coefficients : BT.2020 non-constant
Mastering display color primar : Display P3
Mastering display luminance : min: 0.0050 cd/m2, max: 6000 cd/m2
Maximum Content Light Level : 6000 cd/m2
Maximum Frame-Average Light Le : 640 cd/m2

Audio #1
ID : 2
Format : DTS XLL
Format/Info : Digital Theater Systems
Commercial name : DTS-HD Master Audio
Codec ID : A_DTS
Duration : 1 h 52 min
Bit rate mode : Variable
Bit rate : 3 958 kb/s
Channel(s) : 6 channels
Channel layout : C L R Ls Rs LFE
Sampling rate : 48.0 kHz
Frame rate : 93.750 FPS (512 SPF)
Bit depth : 24 bits
Compression mode : Lossless
Stream size : 3.10 GiB (6%)
Title : Surround 5.1
Language : English
Default : No
Forced : No

Audio #2
ID : 4
Format : DTS
Format/Info : Digital Theater Systems
Codec ID : A_DTS
Duration : 1 h 52 min
Bit rate mode : Constant
Bit rate : 768 kb/s
Channel(s) : 6 channels
Channel layout : C L R Ls Rs LFE
Sampling rate : 48.0 kHz
Frame rate : 93.750 FPS (512 SPF)
Bit depth : 24 bits
Compression mode : Lossy
Stream size : 617 MiB (1%)
Title : THAI DTS
Language : Thai
Default : No
Forced : No

Text #1
ID : 3
Format : PGS
Muxing mode : zlib
Codec ID : S_HDMV/PGS
Codec ID/Info : Picture based subtitle format used on BDs/HD-DVDs
Duration : 1 h 43 min
Bit rate : 40.3 kb/s
Count of elements : 2856
Stream size : 30.0 MiB (0%)
Language : English
Default : No
Forced : No

Text #2
ID : 5
Format : PGS
Muxing mode : zlib
Codec ID : S_HDMV/PGS
Codec ID/Info : Picture based subtitle format used on BDs/HD-DVDs
Duration : 1 h 43 min
Bit rate : 52.6 kb/s
Count of elements : 3072
Stream size : 39.0 MiB (0%)
Title : TH PGS
Language : Thai
Default : No
Forced : No

Text #3
ID : 6
Format : UTF-8
Codec ID : S_TEXT/UTF8
Codec ID/Info : UTF-8 Plain Text
Duration : 1 h 43 min
Bit rate : 157 b/s
Count of elements : 1536
Stream size : 120 KiB (0%)
Language : Thai
Default : Yes
Forced : No

Menu
00:00:00.000 : en:Chapter 01
00:06:22.340 : en:Chapter 02
00:13:25.054 : en:Chapter 03
00:20:33.357 : en:Chapter 04
00:27:08.752 : en:Chapter 05
00:34:13.718 : en:Chapter 06
00:41:57.681 : en:Chapter 07
00:47:01.944 : en:Chapter 08
00:54:07.827 : en:Chapter 09
01:00:00.597 : en:Chapter 10
01:08:25.601 : en:Chapter 11
01:13:37.746 : en:Chapter 12
01:21:02.190 : en:Chapter 13
01:26:40.361 : en:Chapter 14
01:33:41.032 : en:Chapter 15
01:38:44.335 : en:Chapter 16










http://cornfile.com/v0kmj9j5ebg3
http://www.mekafile.com/dl.php?f=rUd390bPTbNb