+ Reply to Thread
Results 1 to 4 of 4
  1. #1
    Administrators Duckload.us's Avatar
    Join Date
    Dec 2010
    Posts
    99,761
    Thanks
    9
    Thanked 101,225 Times in 48,467 Posts

    Angry []-[IMDb 6.2 Ѻ PGS] Dead Silence (2007) Unrated 720p BluRay DTS x264-mlove [Ҷþ] [ §+Ѻ ѧ]




    Dead Silence - Ҷþ

    IMDb 6.2
    http://www.imdb.com/title/tt0455760


    - Horror | Mystery | Thriller
    - 92 Min.

    շҩ
    2007

    ӡѺ
    James Wan

    ¹
    James Wan
    Leigh Whannell

    ѡʴ
    Ryan Kwanten ... Jamie Ashen
    Amber Valletta ... Ella Ashen
    Donnie Wahlberg ... Det. Lipton
    Michael Fairman ... Henry Walker
    Joan Heney ... Marion Walker
    Bob Gunton ... Edward Ashen
    Laura Regan ... Lisa Ashen
    Dmitry Chepovetsky ... Richard Walker
    Judith Roberts ... Mary Shaw

    ͧ
    ˹Ǥ觧ҹ Ѻ ԫ ҷͧº Ravens Fair .. ׹˹ ǡҡѺʴػȹ 㹺èԴ ҹ ԫҡ١ѧ˴ ..»ȹҢͧ ͡׺˵ .. Ҿ ͧ觹˭ԧѡʴ꡵Դ ١ѧ˴ªǺҹ ǵѴ͡ ЪǺҹ繵˵آͧ硷 .. ѧҡ ժǺҹ¤ͺ ١ªԵ鹢Ҵҵʹ











    General
    Complete name : D:MovieDead Silence 2007 Unrated 720p BluRay DTS x264-mlove.mkv
    Format : Matroska
    File size : 4.65 GiB
    Duration : 1h 31mn
    Overall bit rate : 7 267 Kbps
    Encoded date : UTC 2014-05-13 05:09:43
    Writing application : mkvmerge v6.9.1 ( Blue Panther ) 64bit built on Apr 18 2014 18:23:38
    Writing library : libebml v1.3.0 + libmatroska v1.4.1

    Video
    ID : 1
    Format : AVC
    Format/Info : Advanced Video Codec
    Format profile : [email protected]
    Format settings, CABAC : Yes
    Format settings, ReFrames : 8 frames
    Codec ID : V_MPEG4/ISO/AVC
    Duration : 1h 31mn
    Bit rate : 6 076 Kbps
    Width : 1 280 pixels
    Height : 534 pixels
    Display aspect ratio : 2.40:1
    Frame rate mode : Constant
    Frame rate : 23.976 fps
    Color space : YUV
    Chroma subsampling : 4:2:0
    Bit depth : 8 bits
    Scan type : Progressive
    Bits/(Pixel*Frame) : 0.371
    Stream size : 3.83 GiB (82%)
    Writing library : x264 core 120
    Encoding settings : cabac=1 / ref=8 / deblock=1:-3:-3 / analyse=0x3:0x113 / me=hex / subme=7 / psy=1 / psy_rd=1.00:0.00 / mixed_ref=1 / me_range=16 / chroma_me=1 / trellis=1 / 8x8dct=1 / cqm=0 / deadzone=21,11 / fast_pskip=1 / chroma_qp_offset=-2 / threads=3 / sliced_threads=0 / nr=0 / decimate=1 / interlaced=0 / bluray_compat=0 / constrained_intra=0 / bframes=3 / b_pyramid=2 / b_adapt=2 / b_bias=0 / direct=1 / weightb=1 / open_gop=0 / weightp=2 / keyint=240 / keyint_min=24 / scenecut=40 / intra_refresh=0 / rc_lookahead=10 / rc=2pass / mbtree=1 / bitrate=6076 / ratetol=1.0 / qcomp=0.60 / qpmin=3 / qpmax=69 / qpstep=4 / cplxblur=20.0 / qblur=0.5 / ip_ratio=1.40 / aq=1:1.00
    Language : English
    Default : Yes
    Forced : No
    Color primaries : BT.709
    Transfer characteristics : BT.709
    Matrix coefficients : BT.709

    Audio #1
    ID : 2
    Format : DTS
    Format/Info : Digital Theater Systems
    Mode : 16
    Format settings, Endianness : Big
    Codec ID : A_DTS
    Duration : 1h 31mn
    Bit rate mode : Constant
    Bit rate : 755 Kbps
    Channel(s) : 6 channels
    Channel positions : Front: L C R, Side: L R, LFE
    Sampling rate : 48.0 KHz
    Bit depth : 24 bits
    Compression mode : Lossy
    Stream size : 494 MiB (10%)
    Title : ENG DTS
    Language : English

    Audio #2
    ID : 3
    Format : AC-3
    Format/Info : Audio Coding 3
    Mode extension : CM (complete main)
    Format settings, Endianness : Big
    Codec ID : A_AC3
    Duration : 1h 31mn
    Bit rate mode : Constant
    Bit rate : 384 Kbps
    Channel(s) : 6 channels
    Channel positions : Front: L C R, Side: L R, LFE
    Sampling rate : 48.0 KHz
    Bit depth : 16 bits
    Compression mode : Lossy
    Stream size : 251 MiB (5%)
    Title : [THAI AC3 FROM DVD MASTER]
    Language : Thai

    Text #1
    ID : 4
    Format : VobSub
    Codec ID : S_VOBSUB
    Title : [SUB THAI 480P] Angsana UPC
    Language : Thai

    Text #2
    ID : 5
    Format : VobSub
    Codec ID : S_VOBSUB
    Title : [SUB THAI 1080P] Angsana UPC
    Language : Thai

    Text #3
    ID : 6
    Format : VobSub
    Codec ID : S_VOBSUB
    Title : [SUB THAI 1080P] TH Sarabun
    Language : Thai

    Text #4
    ID : 7
    Format : PGS
    Codec ID : S_HDMV/PGS
    Title : PGS Angsana UPC
    Language : Thai

    Text #5
    ID : 8
    Format : PGS
    Codec ID : S_HDMV/PGS
    Title : PGS TH Sarabun
    Language : Thai

    Text #6
    ID : 9
    Format : UTF-8
    Codec ID : S_TEXT/UTF8
    Title : ENG SRT
    Language : English


    ͺس§+Ѻ DVD Master ҡ ˭ [YaiԹǴ]


    http://cornfile.com/3ubf3c6l7a2f

  2. The Following 3 Users Say Thank You to Duckload.us For This Useful Post:

    midbim (05-17-2014), NaiWan (05-19-2014), ParkYuRi (05-18-2014)

  3. #2
    Senior Member
    Join Date
    Jul 2013
    Posts
    178
    Thanks
    2
    Thanked 0 Times in 0 Posts
    Һ ͺФس version Ѻ

  4. #3
    Member
    Join Date
    Apr 2011
    Posts
    81
    Thanks
    0
    Thanked 0 Times in 0 Posts
    ͺسѺ ҹҹ͹ѹѺ

  5. #4
    Senior Member ParkYuRi's Avatar
    Join Date
    Jun 2012
    Posts
    309
    Thanks
    272
    Thanked 0 Times in 0 Posts
    ͺسҡ

Thread Information

Users Browsing this Thread

There are currently 1 users browsing this thread. (0 members and 1 guests)

     

Posting Permissions

  • You may not post new threads
  • You may not post replies
  • You may not post attachments
  • You may not edit your posts